<?xml version="1.0" standalone="no"?>
<!DOCTYPE svg PUBLIC "-//W3C//DTD SVG 1.1//EN" "http://www.w3.org/Graphics/SVG/1.1/DTD/svg11.dtd">
<svg xmlns="http://www.w3.org/2000/svg">
<metadata>Copyright (C) 2020 by original authors @ fontello.com</metadata>
<defs>
<font id="fontawesome-etherpad" horiz-adv-x="1000" >
<font-face font-family="fontawesome-etherpad" font-weight="400" font-stretch="normal" units-per-em="1000" ascent="850" descent="-150" />
<missing-glyph horiz-adv-x="1000" />
<glyph glyph-name="sync-alt" unicode="&#xe800;" d="M724 590c-61 57-140 88-224 88-152 0-282-104-318-248-3-10-12-17-23-17h-112c-15 0-26 13-23 27 42 225 239 394 476 394 130 0 248-51 335-134l69 70c30 30 80 9 80-33v-262c0-26-21-47-46-47h-262c-42 0-63 51-33 80l81 82z m-661-318h261c42 0 63-51 34-80l-82-82c61-57 140-88 224-88 152 0 282 104 318 248 3 10 12 18 23 18h112c15 0 26-14 23-28-42-225-239-394-476-394-130 0-248 51-335 134l-69-70c-30-30-80-9-80 33v262c0 26 21 47 47 47z" horiz-adv-x="1000" />

<glyph glyph-name="print" unicode="&#xe801;" d="M214-7h500v143h-500v-143z m0 357h500v214h-89q-22 0-38 16t-16 38v89h-357v-357z m643-36q0 15-10 25t-26 11-25-11-10-25 10-25 25-10 26 10 10 25z m72 0v-232q0-7-6-12t-12-6h-125v-89q0-22-16-38t-38-16h-536q-22 0-37 16t-16 38v89h-125q-7 0-13 6t-5 12v232q0 44 32 76t75 31h36v304q0 22 16 38t37 16h375q23 0 50-12t42-26l85-85q15-16 27-43t11-49v-143h35q45 0 76-31t32-76z" horiz-adv-x="928.6" />

<glyph glyph-name="stop" unicode="&#xe802;" d="M781 788h-687c-52 0-94-42-94-94v-688c0-52 42-94 94-94h687c52 0 94 42 94 94v688c0 52-42 94-94 94z" horiz-adv-x="875" />

<glyph glyph-name="play" unicode="&#xe803;" d="M829 431l-688 406c-55 33-141 1-141-81v-812c0-74 80-118 141-81l688 406c61 37 61 126 0 162z" horiz-adv-x="875" />

<glyph glyph-name="align-center" unicode="&#xe804;" d="M688 764v-78c0-17-14-31-32-31h-437c-17 0-31 14-31 31v78c0 17 14 31 31 31h437c18 0 32-14 32-31z m-657-359h813c17 0 31 14 31 31v78c0 17-14 31-31 31h-813c-17 0-31-14-31-31v-78c0-17 14-31 31-31z m0-500h813c17 0 31 14 31 31v78c0 17-14 31-31 31h-813c-17 0-31-14-31-31v-78c0-17 14-31 31-31z m625 390h-437c-17 0-31-14-31-31v-78c0-17 14-31 31-31h437c18 0 32 14 32 31v78c0 17-14 31-32 31z" horiz-adv-x="875" />

<glyph glyph-name="align-justify" unicode="&#xe805;" d="M0 686v78c0 17 14 31 31 31h813c17 0 31-14 31-31v-78c0-17-14-31-31-31h-813c-17 0-31 14-31 31z m31-281h813c17 0 31 14 31 31v78c0 17-14 31-31 31h-813c-17 0-31-14-31-31v-78c0-17 14-31 31-31z m0-500h813c17 0 31 14 31 31v78c0 17-14 31-31 31h-813c-17 0-31-14-31-31v-78c0-17 14-31 31-31z m0 250h813c17 0 31 14 31 31v78c0 17-14 31-31 31h-813c-17 0-31-14-31-31v-78c0-17 14-31 31-31z" horiz-adv-x="875" />

<glyph glyph-name="align-left" unicode="&#xe806;" d="M563 764v-78c0-17-14-31-32-31h-500c-17 0-31 14-31 31v78c0 17 14 31 31 31h500c18 0 32-14 32-31z m-563-250v-78c0-17 14-31 31-31h813c17 0 31 14 31 31v78c0 17-14 31-31 31h-813c-17 0-31-14-31-31z m31-609h813c17 0 31 14 31 31v78c0 17-14 31-31 31h-813c-17 0-31-14-31-31v-78c0-17 14-31 31-31z m500 390h-500c-17 0-31-14-31-31v-78c0-17 14-31 31-31h500c18 0 32 14 32 31v78c0 17-14 31-32 31z" horiz-adv-x="875" />

<glyph glyph-name="align-right" unicode="&#xe807;" d="M313 686v78c0 17 14 31 31 31h500c17 0 31-14 31-31v-78c0-17-14-31-31-31h-500c-17 0-31 14-31 31z m-282-281h813c17 0 31 14 31 31v78c0 17-14 31-31 31h-813c-17 0-31-14-31-31v-78c0-17 14-31 31-31z m0-500h813c17 0 31 14 31 31v78c0 17-14 31-31 31h-813c-17 0-31-14-31-31v-78c0-17 14-31 31-31z m313 250h500c17 0 31 14 31 31v78c0 17-14 31-31 31h-500c-17 0-31-14-31-31v-78c0-17 14-31 31-31z" horiz-adv-x="875" />

<glyph glyph-name="pencil-alt" unicode="&#xe808;" d="M973 573l-91-91c-9-9-24-9-33 0l-217 217c-9 9-9 24 0 33l91 91c36 36 95 36 132 0l118-118c36-36 36-96 0-132z m-418 82l-513-513-41-237c-6-32 22-60 54-54l237 41 513 513c10 9 10 24 0 33l-216 217c-10 9-25 9-34 0z m-313-469c-10 11-10 28 0 39l301 301c11 10 28 10 39 0s11-28 0-39l-301-301c-11-11-28-11-39 0z m-70-164h94v-71l-126-22-61 61 22 126h71v-94z" horiz-adv-x="1000" />

<glyph glyph-name="file-code" unicode="&#xe809;" d="M750 612v-12h-250v250h12c12 0 24-5 33-14l191-191a47 47 0 0 0 14-33z m-266-74c-25 0-46 21-46 46v266h-391c-26 0-47-21-47-47v-906c0-26 21-47 47-47h656c26 0 47 21 47 47v641h-266z m-243-470a11 11 0 0 0-15-1l-127 119a11 11 0 0 0 0 15l127 119a11 11 0 0 0 15 0l38-41a11 11 0 0 0-1-15l-79-70 79-70a11 11 0 0 0 1-15l-38-41z m100-99l-54 16a11 11 0 0 0-7 13l120 413a11 11 0 0 0 13 7l54-15a11 11 0 0 0 7-13l-120-414a11 11 0 0 0-13-7z m314 217l-127-119a11 11 0 0 0-15 1l-38 41a11 11 0 0 0 1 15l79 70-79 70a11 11 0 0 0-1 15l38 41a11 11 0 0 0 15 0l127-119a11 11 0 0 0 0-15z" horiz-adv-x="750" />

<glyph glyph-name="mail" unicode="&#xe80a;" d="M929 11v428q-18-20-39-36-149-115-238-189-28-24-46-37t-48-28-57-13h-2q-26 0-57 13t-48 28-46 37q-88 74-238 189-21 16-39 36v-428q0-7 6-13t12-5h822q7 0 12 5t6 13z m0 586v14t-1 7-1 7-3 5-5 4-8 2h-822q-7 0-12-6t-6-12q0-94 83-159 107-84 223-176 4-3 20-17t25-21 25-17 28-16 24-5h2q11 0 24 5t28 16 25 17 25 21 20 17q116 92 224 176 30 24 56 65t26 73z m71 21v-607q0-37-26-63t-63-27h-822q-36 0-63 27t-26 63v607q0 37 26 63t63 26h822q37 0 63-26t26-63z" horiz-adv-x="1000" />

<glyph glyph-name="home" unicode="&#xe80b;" d="M786 296v-267q0-15-11-25t-25-11h-214v214h-143v-214h-214q-15 0-25 11t-11 25v267q0 1 0 2t0 2l321 264 321-264q1-1 1-4z m124 39l-34-41q-5-5-12-6h-2q-7 0-12 3l-386 322-386-322q-7-4-13-3-7 1-12 6l-35 41q-4 6-3 13t6 12l401 334q18 15 42 15t43-15l136-113v108q0 8 5 13t13 5h107q8 0 13-5t5-13v-227l122-102q6-4 6-12t-4-13z" horiz-adv-x="928.6" />

<glyph glyph-name="trash" unicode="&#xe80e;" d="M844 788h-235l-18 36a47 47 0 0 1-42 26h-223a46 46 0 0 1-42-26l-18-36h-235a31 31 0 0 1-31-32v-62a31 31 0 0 1 31-31h813a31 31 0 0 1 31 31v62a31 31 0 0 1-31 32z m-740-850a94 94 0 0 1 94-88h480a94 94 0 0 1 93 88l42 662h-750z" horiz-adv-x="875" />

<glyph glyph-name="times" unicode="&#xe826;" d="M474 350l196 195c24 24 24 63 0 87l-44 44c-24 24-63 24-87 0l-195-196-196 196c-24 24-63 24-87 0l-43-44c-24-24-24-62 0-87l195-195-195-195c-24-24-24-63 0-87l43-44c24-24 63-24 87 0l196 196 195-196c24-24 63-24 87 0l44 44c24 24 24 63 0 87l-196 195z" horiz-adv-x="688" />

<glyph glyph-name="pause" unicode="&#xe829;" d="M281-86h-187c-52 0-94 42-94 94v688c0 52 42 94 94 94h187c52 0 94-42 94-94v-688c0-52-42-94-94-94z m594 94v688c0 52-42 94-94 94h-187c-52 0-94-42-94-94v-688c0-52 42-94 94-94h187c52 0 94 42 94 94z" horiz-adv-x="875" />

<glyph glyph-name="list-ul" unicode="&#xe82a;" d="M188 663c0-52-42-94-94-94s-94 42-94 94 42 93 94 93 94-42 94-93z m-94-219c-52 0-94-42-94-94s42-94 94-94 94 42 94 94-42 94-94 94z m0-313c-52 0-94-42-94-93s42-94 94-94 94 42 94 94-42 93-94 93z m187 461h688c17 0 31 14 31 31v79c0 17-14 31-31 31h-688c-17 0-31-14-31-31v-79c0-17 14-31 31-31z m0-312h688c17 0 31 14 31 31v78c0 17-14 31-31 31h-688c-17 0-31-14-31-31v-78c0-17 14-31 31-31z m0-313h688c17 0 31 14 31 31v79c0 17-14 31-31 31h-688c-17 0-31-14-31-31v-79c0-17 14-31 31-31z" horiz-adv-x="1000" />

<glyph glyph-name="step-backward" unicode="&#xe82b;" d="M125-64v828c0 13 11 24 23 24h94c13 0 24-11 24-24v-344l382 353c40 33 102 6 102-48v-750c0-54-62-81-102-48l-382 351v-342c0-13-11-24-24-24h-94c-12 0-23 11-23 24z" horiz-adv-x="875" />

<glyph glyph-name="step-forward" unicode="&#xe82c;" d="M750 764v-828c0-13-10-24-23-24h-94c-13 0-24 11-24 24v345l-381-354c-41-33-103-6-103 48v750c0 54 62 81 103 48l381-351v342c0 13 11 24 24 24h94c13 0 23-11 23-24z" horiz-adv-x="875" />

<glyph glyph-name="comments" unicode="&#xe82d;" d="M813 475c0 173-182 313-407 313s-406-140-406-313c0-67 28-129 74-180-26-59-69-105-70-106-4-5-5-11-3-17s8-9 15-9c71 0 130 24 173 48 63-30 137-48 217-48 225 0 407 139 407 312z m238-430c47 51 74 113 74 180 0 131-104 243-252 289 1-13 2-26 2-39 0-207-210-375-469-375-21 0-41 2-62 4 62-113 206-192 375-192 80 0 154 18 217 49 43-25 102-49 173-49 7 0 12 4 15 10 2 5 1 12-3 17-1 0-44 47-70 106z" horiz-adv-x="1125" />

<glyph glyph-name="heading" unicode="&#xe82e;" d="M969 694v62c0 18-14 32-31 32h-313c-17 0-31-14-31-32v-62c0-17 14-31 31-31h74v-250h-397v250h73c17 0 31 14 31 31v62c0 18-14 32-31 32h-312c-18 0-32-14-32-32v-62c0-17 14-31 32-31h72v-625h-72c-18 0-32-14-32-32v-62c0-18 14-32 32-32h312c17 0 31 14 31 32v62c0 18-14 32-31 32h-73v250h397v-250h-74c-17 0-31-14-31-32v-62c0-18 14-32 31-32h313c17 0 31 14 31 32v62c0 18-14 32-31 32h-73v625h73c17 0 31 14 31 31z" horiz-adv-x="1000" />

<glyph glyph-name="brush" unicode="&#xe830;" d="M901 850q39 0 69-26t29-65q0-35-25-84-185-351-260-420-54-51-121-51-71 0-121 52t-51 123q0 71 52 118l356 323q33 30 72 30z m-507-577q22-42 59-73t84-42l1-40q2-118-72-193t-195-75q-68 0-121 26t-85 71-49 102-16 123q4-3 23-17t35-25 32-20 26-9q23 0 31 20 14 37 32 63t39 42 49 27 57 14 70 6z" horiz-adv-x="1000" />

<glyph glyph-name="slideshare" unicode="&#xe831;" d="M487 437q0-46-35-79t-85-34-85 34-36 79q0 47 36 80t85 33 85-33 35-80z m280 0q0-46-35-79t-85-34q-50 0-85 34t-36 79q0 47 36 80t85 33q50 0 85-33t35-80z m126-100v372q0 48-18 69t-62 20h-620q-47 0-63-19t-17-70v-376q24-13 50-22t45-16 45-10 40-6 39-2 32-1 32 2 25 1q38 0 53-15 3-4 5-5 15-14 34-29 4 51 66 49 3 0 21-1t24-1 25-1 30 1 30 2 34 5 35 7 37 11 38 15 40 20z m91 2q-68-83-208-140 47-159-13-260-36-63-102-82-58-18-101 8-48 28-46 92l-1 182v0q-4 1-13 3t-13 3l-1-188q2-64-46-92-44-26-102-8-66 20-102 83-58 101-12 259-140 57-208 140-14 21-2 36t33-1q3-1 7-4t6-4v387q0 40 26 69t64 28h701q37 0 64-28t26-69v-387l12 8q21 15 33 1t-2-36z" horiz-adv-x="1000" />

<glyph glyph-name="tasks" unicode="&#xe832;" d="M571 64h358v72h-358v-72z m-214 286h572v71h-572v-71z m357 286h215v71h-215v-71z m286-465v-142q0-15-11-25t-25-11h-928q-15 0-25 11t-11 25v142q0 15 11 26t25 10h928q15 0 25-10t11-26z m0 286v-143q0-14-11-25t-25-10h-928q-15 0-25 10t-11 25v143q0 15 11 25t25 11h928q15 0 25-11t11-25z m0 286v-143q0-14-11-25t-25-11h-928q-15 0-25 11t-11 25v143q0 14 11 25t25 11h928q15 0 25-11t11-25z" horiz-adv-x="1000" />

<glyph glyph-name="superscript" unicode="&#xe833;" d="M531 475h-132c-11 0-21-6-27-15l-78-127c-5-7-9-14-13-20-3 6-7 13-11 20l-78 127c-5 9-15 15-26 15h-135c-17 0-31-14-31-31v-63c0-17 14-31 31-31h59l103-151-110-161h-52c-17 0-31-15-31-32v-62c0-17 14-32 31-32h125c11 0 21 6 27 15l87 141c4 7 8 14 12 21 3-6 7-14 12-20l89-142c6-9 16-15 26-15h122c17 0 32 15 32 32v62c0 17-15 32-32 32h-43l-114 164 103 148h54c17 0 32 14 32 31v63c0 17-15 31-32 31z m438-125h-197c7 21 37 42 71 63 32 21 69 44 98 76 34 38 51 79 51 126 0 119-99 173-191 173-83 0-150-43-185-99-9-14-5-33 9-43l59-39c14-9 33-6 43 7 15 20 36 35 62 35 37 0 51-25 51-46 0-71-233-112-233-313 0-13 1-25 2-38 3-15 16-27 31-27h329c17 0 31 14 31 31v63c0 17-14 31-31 31z" horiz-adv-x="1000" />

<glyph glyph-name="subscript" unicode="&#xe834;" d="M531 788h-132c-11 0-21-6-27-15l-78-127c-5-7-9-15-13-21-3 6-7 14-11 21l-78 127c-5 9-15 15-26 15h-135c-17 0-31-15-31-32v-62c0-17 14-31 31-31h59l103-151-110-162h-52c-17 0-31-14-31-31v-63c0-17 14-31 31-31h125c11 0 21 6 27 15l87 141c4 7 8 14 12 20 3-6 7-13 12-20l89-141c6-9 16-15 26-15h122c17 0 32 14 32 31v63c0 17-15 31-32 31h-43l-114 165 103 148h54c17 0 32 14 32 31v62c0 17-15 32-32 32z m438-750h-197c7 20 37 41 71 63 32 21 69 44 98 76 34 37 51 78 51 126 0 118-99 172-191 172-83 0-150-43-185-98-9-15-5-34 9-43l59-40c14-9 33-6 43 7 15 21 36 36 62 36 37 0 51-25 51-47 0-71-233-111-233-313 0-13 1-25 2-37 3-16 16-27 31-27h329c17 0 31 14 31 31v62c0 17-14 32-31 32z" horiz-adv-x="1000" />

<glyph glyph-name="users" unicode="&#xe835;" d="M188 413c68 0 125 56 125 125s-57 125-125 125-125-57-125-125 56-125 125-125z m875 0c68 0 125 56 125 125s-57 125-125 125-125-57-125-125 56-125 125-125z m62-63h-125c-34 0-65-14-88-36 79-43 135-121 147-214h129c34 0 62 28 62 63v62c0 69-56 125-125 125z m-500 0c121 0 219 98 219 219s-98 219-219 219-219-98-219-219 98-219 219-219z m150-62h-16c-41-20-86-32-134-32s-93 12-134 32h-16c-124 0-225-101-225-225v-57c0-52 42-94 94-94h562c52 0 94 42 94 94v57c0 124-101 225-225 225z m-437 26c-23 22-54 36-88 36h-125c-69 0-125-56-125-125v-62c0-35 28-63 63-63h128c13 93 68 171 147 214z" horiz-adv-x="1250" />

<glyph glyph-name="gauge" unicode="&#xe836;" d="M563 788c-311 0-563-252-563-563 0-103 28-200 76-283 11-19 32-30 54-30h865c22 0 43 11 54 30 48 83 76 180 76 283 0 311-252 563-562 563z m0-125c28 0 51-20 59-47-2-4-5-8-7-13l-18-54c-10-7-21-11-34-11-35 0-63 28-63 62s28 63 63 63z m-375-563c-35 0-63 28-63 63s28 62 63 62 62-28 62-62-28-63-62-63z m93 313c-34 0-62 28-62 62s28 63 62 63 63-28 63-63-28-62-63-62z m482 141l-120-359c27-23 45-57 45-95 0-23-7-44-18-62h-215c-11 18-17 39-17 62 0 66 51 120 117 124l119 360c8 24 35 38 60 29 24-8 37-34 29-59z m29-112l30 91c7 3 14 5 22 5 34 0 62-28 62-63s-28-62-62-62c-22 0-41 12-52 29z m146-342c-35 0-63 28-63 63s28 62 63 62 62-28 62-62-28-63-62-63z" horiz-adv-x="1125" />

<glyph glyph-name="exchange-alt" unicode="&#xe837;" d="M0 522v31c0 26 21 47 47 47h703v94c0 42 51 62 80 33l156-156c19-19 19-48 0-67l-156-156c-29-29-80-9-80 33v94h-703c-26 0-47 21-47 47z m953-297h-703v94c0 41-50 62-80 33l-156-156c-19-19-19-48 0-67l156-156c29-29 80-9 80 33v94h703c26 0 47 21 47 47v31c0 26-21 47-47 47z" horiz-adv-x="1000" />

<glyph glyph-name="text-width" unicode="&#xe838;" d="M31 788h813c17 0 31-14 31-32v-187c0-17-14-31-31-31h-70c-17 0-31 14-31 31v94h-232v-250h67c17 0 31-14 31-32v-62c0-17-14-31-31-31h-281c-17 0-31 14-31 31v62c0 18 14 32 31 32h67v250h-232v-94c0-17-14-31-31-31h-70c-17 0-31 14-31 31v187c0 18 14 32 31 32z m835-666l-156 156c-19 19-54 9-54-22v-93h-437v93c0 28-34 42-54 22l-156-156c-12-12-12-32 0-44l156-156c19-19 54-9 54 22v94h437v-94c0-28 34-42 54-22l156 156c12 12 12 32 0 44z" horiz-adv-x="875" />

<glyph glyph-name="pencil" unicode="&#xe839;" d="M203-7l50 51-131 131-51-51v-60h72v-71h60z m291 518q0 12-12 12-5 0-9-4l-303-302q-4-4-4-10 0-12 13-12 5 0 9 4l303 302q3 4 3 10z m-30 107l232-232-464-465h-232v233z m381-54q0-29-20-50l-93-93-232 233 93 92q20 21 50 21 29 0 51-21l131-131q20-22 20-51z" horiz-adv-x="857.1" />

<glyph glyph-name="picture" unicode="&#xe83a;" d="M906-25h-812c-52 0-94 42-94 94v562c0 52 42 94 94 94h812c52 0 94-42 94-94v-562c0-52-42-94-94-94z m-687 641c-61 0-110-49-110-110s49-109 110-109 109 49 109 109-49 110-109 110z m-94-516h750v219l-171 171c-9 9-24 9-33 0l-265-265-108 108c-9 10-24 10-33 0l-140-139v-94z" horiz-adv-x="1000" />

<glyph glyph-name="video" unicode="&#xe83b;" d="M657 725h-564c-51 0-93-42-93-93v-564c0-51 42-93 93-93h564c51 0 93 42 93 93v564c0 51-42 93-93 93z m370-74l-214-147v-308l214-147c41-29 98 0 98 50v502c0 50-57 79-98 50z" horiz-adv-x="1125" />

<glyph glyph-name="video-slash" unicode="&#xe83c;" d="M1238-45l-107 83c30 3 57 27 57 61v502c0 50-57 79-99 50l-214-147v-268l-62 48v348c0 51-42 93-94 93h-477l-153 118c-14 11-33 9-44-5l-38-49c-11-14-9-33 5-44l71-55 730-564 348-269c14-11 33-9 44 5l38 49c11 14 9 34-5 44z m-1175 113c0-51 41-93 93-93h563c22 0 42 8 58 20l-714 553v-480z" horiz-adv-x="1250" />

<glyph glyph-name="microphone-alt" unicode="&#xe83d;" d="M656 475h-31c-17 0-31-14-31-31v-94c0-146-126-263-275-249-130 13-225 130-225 260v83c0 17-14 31-31 31h-32c-17 0-31-14-31-31v-79c0-175 125-331 297-355v-66h-109c-18 0-32-14-32-32v-31c0-17 14-31 32-31h312c17 0 31 14 31 31v31c0 18-14 32-31 32h-109v66c167 23 297 166 297 340v94c0 17-14 31-32 31z m-312-312c103 0 187 83 187 187h-166c-12 0-21 7-21 16v31c0 9 9 16 21 16h166v62h-166c-12 0-21 7-21 16v31c0 9 9 16 21 16h166v62h-166c-12 0-21 7-21 16v31c0 9 9 16 21 16h166c0 103-84 187-187 187s-188-84-188-187v-313c0-104 84-187 188-187z" horiz-adv-x="688" />

<glyph glyph-name="microphone-alt-slash" unicode="&#xe83e;" d="M1238-45l-308 238c25 47 39 100 39 157v94c0 17-14 31-31 31h-32c-17 0-31-14-31-31v-94c0-35-8-68-21-98l-52 40c6 18 11 38 11 58h-86l-81 63h167v62h-167c-12 0-21 7-21 16v31c0 9 9 16 21 16h167v62h-167c-12 0-21 7-21 16v31c0 9 9 16 21 16h167c0 103-84 187-188 187s-187-84-187-187v-89l-349 269c-14 11-33 9-44-5l-38-49c-11-14-9-34 5-44l1149-888c14-11 34-9 44 5l38 49c11 14 9 34-5 44z m-457-11h-109v66c23 3 45 8 66 16l-98 76c-13-1-26-2-40-1-109 11-193 95-217 199l-102 79v-14c0-175 125-331 297-355v-66h-109c-17 0-31-14-31-32v-31c0-17 14-31 31-31h312c18 0 32 14 32 31v31c0 18-14 32-32 32z" horiz-adv-x="1250" />

<glyph glyph-name="compress" unicode="&#xe83f;" d="M852 475h-243c-26 0-46 21-46 47v242c0 13 10 24 23 24h78c13 0 24-11 24-24v-164h164c13 0 23-10 23-23v-79c0-12-10-23-23-23z m-539 47v242c0 13-11 24-24 24h-78c-13 0-23-11-23-24v-164h-165c-12 0-23-10-23-23v-79c0-12 11-23 23-23h243c26 0 47 21 47 47z m0-586v242c0 26-21 47-47 47h-243c-12 0-23-10-23-23v-79c0-12 11-23 23-23h165v-164c0-13 10-24 23-24h78c13 0 24 11 24 24z m375 0v164h164c13 0 23 11 23 23v79c0 13-10 23-23 23h-243c-26 0-46-21-46-47v-242c0-13 10-24 23-24h78c13 0 24 11 24 24z" horiz-adv-x="875" />

<glyph glyph-name="expand" unicode="&#xe840;" d="M0 498v243c0 26 21 47 47 47h242c13 0 24-11 24-24v-78c0-13-11-23-24-23h-164v-165c0-12-10-23-23-23h-79c-12 0-23 11-23 23z m563 266v-78c0-13 10-23 23-23h164v-165c0-12 11-23 23-23h79c13 0 23 11 23 23v243c0 26-21 47-47 47h-242c-13 0-23-11-23-24z m289-539h-79c-12 0-23-10-23-23v-164h-164c-13 0-23-11-23-24v-78c0-13 10-24 23-24h242c26 0 47 21 47 47v243c0 13-10 23-23 23z m-539-289v78c0 13-11 24-24 24h-164v164c0 13-10 23-23 23h-79c-12 0-23-10-23-23v-243c0-26 21-47 47-47h242c13 0 24 11 24 24z" horiz-adv-x="875" />

<glyph glyph-name="spin5" unicode="&#xe841;" d="M462 850c-6 0-11-5-11-11l0-183 0 0c0-6 5-11 11-11l69 0c1 0 1 0 1 0 7 0 12 5 12 11l0 183 0 0c0 6-5 11-12 11l-69 0c0 0 0 0-1 0z m250-47c-4 1-8-2-10-5l-91-158 0 0c-4-6-2-13 4-16l60-34c0-1 0-1 0-1 6-3 13-1 16 4l91 158c3 6 2 13-4 16l-61 35c-1 1-3 1-5 1z m-428-2c-2 0-4-1-6-2l-61-35c-5-3-7-10-4-16l91-157c0 0 0 0 0 0 3-6 10-8 16-5l61 35c5 4 7 11 4 16l-91 157c0 1 0 1 0 1-2 4-6 6-10 6z m620-163c-2 0-4 0-6-1l-157-91c0 0 0 0 0 0-6-3-8-10-5-16l35-61c4-5 11-7 16-4l157 91c1 0 1 0 1 0 6 3 7 11 4 16l-35 61c-2 4-6 6-10 5z m-810-4c-5 0-9-2-11-6l-35-61c-3-5-1-12 4-15l158-91 0 0c6-4 13-2 16 4l35 60c0 0 0 0 0 0 3 6 1 13-4 16l-158 91c-2 1-4 2-5 2z m712-235l0 0c-6 0-11-5-11-11l0-69c0-1 0-1 0-1 0-7 5-12 11-12l183 0 0 0c6 0 11 5 11 12l0 69c0 0 0 0 0 1 0 6-5 11-11 11l-183 0z m-794-5l0 0c-7 0-12-5-12-12l0-69c0 0 0 0 0-1 0-6 5-11 12-11l182 0 0 0c6 0 11 5 11 11l0 69c0 1 0 1 0 1 0 7-5 12-11 12l-182 0z m772-153c-4 0-8-2-10-6l-34-60c-1 0-1 0-1 0-3-6-1-13 4-16l158-91c6-3 13-1 16 4l35 61c3 5 1 12-4 15l-158 92 0 0c-2 1-4 1-6 1z m-566-5c-1 0-3 0-5-1l-157-91c0 0-1 0-1 0-5-3-7-10-4-16l35-61c3-5 10-7 16-4l157 91c0 0 0 0 0 0 6 3 8 10 5 16l-35 61c-3 3-7 6-11 5z m468-121c-2 0-4 0-6-1l-61-35c-5-4-7-11-4-16l91-157c0-1 0-1 0-1 3-6 11-7 16-4l61 35c5 3 7 10 4 16l-91 157c0 0 0 0 0 0-2 4-6 6-10 6z m-367-2c-4 0-8-2-10-6l-91-158c-3-6-1-13 4-16l61-35c5-3 12-1 15 4l92 158 0 0c3 6 1 13-5 16l-60 35c0 0 0 0 0 0-2 1-4 1-6 2z m149-58c-7 0-12-5-12-11l0-183 0 0c0-6 5-11 12-11l69 0c0 0 0 0 1 0 6 0 11 5 11 11l0 183 0 0c0 6-5 11-11 11l-69 0c-1 0-1 0-1 0z" horiz-adv-x="1000" />

<glyph glyph-name="eye-slash" unicode="&#xe843;" d="M625 69c-148 0-268 114-279 260l-205 158c-27-34-52-69-72-108a63 63 0 0 1 0-57c106-207 316-347 556-347 53 0 103 8 152 20l-101 79a282 282 0 0 0-51-5z m613-114l-216 167a647 647 0 0 1 159 200 63 63 0 0 1 0 57c-106 206-316 346-556 346a602 602 0 0 1-288-74l-248 192a31 31 0 0 1-44-5l-38-49a31 31 0 0 1 5-44l1149-888a31 31 0 0 1 44 5l38 49a31 31 0 0 1-5 44z m-359 278l-77 59a185 185 0 0 1 11 58 185 185 0 0 1-237 180 93 93 0 0 0 18-55 91 91 0 0 0-3-19l-144 111a278 278 0 0 0 178 64 281 281 0 0 0 281-281c0-42-10-82-27-117z" horiz-adv-x="1250" />

<glyph glyph-name="list-ol" unicode="&#xe844;" d="M6 578c0 14 8 22 23 22h30v78c0 10 1 21 1 21h-1s-4-6-6-8c-8-8-20-8-30 2l-11 12c-10 11-10 22 1 32l42 39c9 8 17 12 29 12h23c15 0 23-8 23-23v-165h30c15 0 23-8 23-22v-18c0-14-8-22-23-22h-131c-15 0-23 8-23 22v18z m-2-323c0 92 100 110 100 135 0 14-12 17-18 17-6 0-13-2-19-7-10-10-20-14-31-5l-17 13c-11 9-14 20-5 30 13 18 37 37 79 37 38 0 86-20 86-77 0-75-91-91-95-111h77c14 0 22-8 22-23v-17c0-14-8-22-22-22h-133c-14 0-24 8-24 22v8z m7-293l11 18c8 13 18 14 30 6 10-4 19-6 29-6 19 0 28 7 28 16 0 13-11 18-32 18h-9c-11 0-18 4-24 16l-2 3c-5 10-2 19 6 29l11 14c13 16 24 26 24 26v1s-9-2-25-2h-25c-15 0-23 8-23 22v17c0 15 8 23 23 23h114c15 0 22-8 22-23v-6c0-11-3-19-10-28l-34-39c38-10 56-40 56-68 0-42-28-87-95-87-32 0-55 10-70 19-11 8-12 19-5 31z m270 630h688c17 0 31 14 31 31v79c0 17-14 31-31 31h-688c-17 0-31-14-31-31v-79c0-17 14-31 31-31z m0-312h688c17 0 31 14 31 31v78c0 17-14 31-31 31h-688c-17 0-31-14-31-31v-78c0-17 14-31 31-31z m0-313h688c17 0 31 14 31 31v79c0 17-14 31-31 31h-688c-17 0-31-14-31-31v-79c0-17 14-31 31-31z" horiz-adv-x="1000" />

<glyph glyph-name="bold" unicode="&#xe845;" d="M595 374c66 36 105 105 105 187 0 94-51 171-134 203-48 20-96 24-156 24h-363c-17 0-31-14-31-32v-64c0-18 14-31 31-31h65v-623h-65c-17 0-31-14-31-31v-63c0-18 14-32 31-32h382c47 0 88 3 131 15 99 30 174 121 174 239 0 102-51 179-139 208z m-317 279h132c31 0 53-4 73-13 31-17 48-52 48-97 0-68-39-110-103-110h-150v220z m220-596c-20-8-44-10-62-10h-158v252h165c77 0 123-49 123-123 0-55-27-102-68-119z" horiz-adv-x="750" />

<glyph glyph-name="underline" unicode="&#xe846;" d="M438 92c-179 0-306 100-306 295v338h-55c-17 0-31 14-31 31v63c0 17 14 31 31 31h268c18 0 32-14 32-31v-63c0-17-14-31-32-31h-56v-338c0-104 55-155 149-155 92 0 148 50 148 156v337h-55c-17 0-31 14-31 31v63c0 17 14 31 31 31h267c17 0 31-14 31-31v-63c0-17-14-31-31-31h-55v-338c0-194-127-295-305-295z m-407-117h813c17 0 31-14 31-31v-63c0-17-14-31-31-31h-813c-17 0-31 14-31 31v63c0 17 14 31 31 31z" horiz-adv-x="875" />

<glyph glyph-name="italic" unicode="&#xe847;" d="M400 38h-66l121 625h80a31 31 0 0 1 30 25l13 62c3 20-11 38-31 38h-312a31 31 0 0 1-31-26l-12-62c-4-20 11-37 31-37h66l-121-625h-78a31 31 0 0 1-30-26l-12-62c-4-20 11-38 30-38h310a31 31 0 0 1 30 26l13 62c3 20-11 38-31 38z" horiz-adv-x="625" />

<glyph glyph-name="strikethrough" unicode="&#xe848;" d="M969 288h-938c-17 0-31 14-31 31v62c0 18 14 32 31 32h938c17 0 31-14 31-32v-62c0-17-14-31-31-31z m-419-32c53-25 90-56 90-110 0-64-56-104-147-104-63 0-150 23-150 86v3c0 18-14 32-32 32h-89c-17 0-31-14-31-32v-37c0-131 152-199 302-199 173 0 316 89 316 262 0 39-7 72-20 99h-239z m-61 188c-63 26-111 56-111 116 0 67 60 93 127 93 83 0 127-32 127-64v-5c0-17 14-31 31-31h89c17 0 31 14 31 31v60c0 102-140 156-278 156-166 0-294-80-294-246 0-44 9-80 25-110h253z" horiz-adv-x="1000" />

<glyph glyph-name="indent" unicode="&#xe849;" d="M0 686v78c0 17 14 31 31 31h813c17 0 31-14 31-31v-78c0-17-14-31-31-31h-813c-17 0-31 14-31 31z m344-281h500c17 0 31 14 31 31v78c0 17-14 31-31 31h-500c-17 0-31-14-31-31v-78c0-17 14-31 31-31z m-313-500h813c17 0 31 14 31 31v78c0 17-14 31-31 31h-813c-17 0-31-14-31-31v-78c0-17 14-31 31-31z m313 250h500c17 0 31 14 31 31v78c0 17-14 31-31 31h-500c-17 0-31-14-31-31v-78c0-17 14-31 31-31z m-103 217l-188 188c-19 19-53 5-53-22v-375c0-28 34-42 53-23l188 188c12 12 12 32 0 44z" horiz-adv-x="875" />

<glyph glyph-name="outdent" unicode="&#xe84a;" d="M0 686v78c0 17 14 31 31 31h813c17 0 31-14 31-31v-78c0-17-14-31-31-31h-813c-17 0-31 14-31 31z m406-281h438c17 0 31 14 31 31v78c0 17-14 31-31 31h-438c-17 0-31-14-31-31v-78c0-17 14-31 31-31z m-375-500h813c17 0 31 14 31 31v78c0 17-14 31-31 31h-813c-17 0-31-14-31-31v-78c0-17 14-31 31-31z m375 250h438c17 0 31 14 31 31v78c0 17-14 31-31 31h-438c-17 0-31-14-31-31v-78c0-17 14-31 31-31z m-397 173l188-188c19-19 53-5 53 23v375c0 28-34 41-53 22l-188-188c-12-12-12-32 0-44z" horiz-adv-x="875" />

<glyph glyph-name="undo-alt" unicode="&#xe84b;" d="M499 834c-129 0-247-51-334-134l-69 70c-30 30-80 9-80-33v-262c0-26 21-47 47-47h261c42 0 63 51 34 80l-82 82c60 56 138 87 221 88 181 2 333-144 331-331-1-177-145-325-328-325-80 0-156 29-216 81-9 8-23 8-32-1l-77-77c-10-10-10-26 0-35 86-77 200-124 325-124 268 0 484 217 484 484 0 267-218 485-485 484z" horiz-adv-x="1000" />

<glyph glyph-name="redo-alt" unicode="&#xe84c;" d="M501 834c129 0 247-51 334-134l69 70c30 30 80 9 80-33v-262c0-26-21-47-46-47h-262c-42 0-63 51-33 80l81 82c-60 56-138 87-221 88-181 2-333-144-331-331 1-177 145-325 328-325 80 0 156 29 216 81 9 8 23 8 32-1l78-77c9-10 9-26-1-35-86-77-200-124-325-124-267 0-484 217-484 484 0 267 218 485 485 484z" horiz-adv-x="1000" />

<glyph glyph-name="link" unicode="&#xe84d;" d="M638 488c117-117 115-304 1-419-1 0-1-1-1-1l-131-131c-116-116-304-116-420 0-116 116-116 304 0 420l72 72c20 19 53 7 54-21 1-34 7-69 19-103 3-11 1-23-8-32l-25-26c-55-54-57-143-3-199 55-56 145-56 200-1l131 132c56 55 55 144 0 198-7 8-14 13-20 17a31 31 0 0 0-13 25c-1 20 6 42 23 58l41 41c10 11 27 12 40 4a298 298 0 0 0 40-34z m275 275c-116 116-304 116-420 0l-131-131c0 0 0-1-1-1-114-115-116-302 1-419a298 298 0 0 1 40-33c13-9 30-8 40 3l42 41c16 16 23 38 22 58a31 31 0 0 1-13 25c-6 4-13 9-20 17-55 54-55 143 0 199l131 131c55 55 145 55 200-1 54-56 52-145-3-199l-25-26c-9-8-11-21-7-32 11-34 17-69 18-103 1-28 35-40 54-21l72 72c116 116 116 304 0 420z" horiz-adv-x="1000" />

<glyph glyph-name="font" unicode="&#xe84e;" d="M844 38h-52l-254 729c-4 12-16 21-29 21h-143c-13 0-25-9-29-21l-254-729h-52c-17 0-31-15-31-32v-62c0-17 14-32 31-32h266c17 0 31 15 31 32v62c0 17-14 32-31 32h-47l52 157h270l52-157h-46c-17 0-31-15-31-32v-62c0-17 14-32 31-32h266c17 0 31 15 31 32v62c0 17-14 32-31 32z m-503 288l82 242c8 30 13 55 15 68 1-13 5-38 15-68l80-242z" horiz-adv-x="875" />

<glyph glyph-name="comment-medical" unicode="&#xe84f;" d="M500 788c-276 0-500-182-500-407 0-96 42-185 111-255-24-98-106-186-107-187a16 16 0 0 1 12-27c129 0 226 62 274 101a595 595 0 0 1 210-38c276 0 500 182 500 406s-224 407-500 407z m188-454a16 16 0 0 0-16-15h-109v-110a16 16 0 0 0-16-15h-94a16 16 0 0 0-15 15v110h-110a16 16 0 0 0-15 15v94a16 16 0 0 0 15 16h110v109a16 16 0 0 0 15 16h94a16 16 0 0 0 16-16v-109h109a16 16 0 0 0 16-16z" horiz-adv-x="1000" />

<glyph glyph-name="comment" unicode="&#xe850;" d="M500 788c-276 0-500-182-500-407 0-97 42-185 111-255-24-98-106-186-107-187-4-5-5-11-3-17s8-10 15-10c129 0 226 63 274 101 64-24 135-38 210-38 276 0 500 182 500 406s-224 407-500 407z" horiz-adv-x="1000" />

<glyph glyph-name="cog" unicode="&#xe851;" d="M952 233l-83 48c8 46 8 92 0 138l83 48c10 5 14 16 11 27-22 70-59 132-107 185-8 8-20 10-29 4l-83-48c-35 30-75 54-119 69v96c0 11-8 20-18 23-72 16-145 15-214 0-10-3-18-12-18-23v-96c-43-16-84-39-119-69l-83 48c-9 6-21 4-29-4-48-53-85-115-106-185-4-11 1-22 10-28l83-48c-8-45-8-91 0-137l-83-48c-9-5-14-17-10-27 21-70 58-133 106-185 8-8 20-10 29-4l83 48c35-30 76-54 119-69v-96c0-11 8-21 19-23 71-16 145-15 213 0 11 2 18 12 18 23v96c44 16 84 39 119 69l83-48c10-6 22-4 29 4 48 52 85 115 107 185 3 11-1 22-11 27z m-452-39c-86 0-156 70-156 156s70 156 156 156 156-70 156-156-70-156-156-156z" horiz-adv-x="1000" />

<glyph glyph-name="text-height" unicode="&#xe852;" d="M31 788h563c17 0 31-14 31-32v-187c0-17-14-31-31-31h-70c-17 0-31 14-31 31v94h-107v-625h67c17 0 31-14 31-32v-62c0-18-14-32-31-32h-281c-17 0-31 14-31 32v62c0 18 14 32 31 32h67v625h-107v-94c0-17-14-31-31-31h-70c-17 0-31 14-31 31v187c0 18 14 32 31 32z m929-10l156-156c19-19 6-53-22-53h-94v-438h94c30 0 40-35 22-53l-156-156c-13-13-32-13-45 0l-156 156c-19 19-6 53 22 53h94v438h-94c-30 0-40 35-22 53l156 156c13 13 32 13 45 0z" horiz-adv-x="1125" />

<glyph glyph-name="share-alt" unicode="&#xe853;" d="M688 225c-45 0-85-15-117-41l-200 125a189 189 0 0 1 0 82l200 125c32-26 72-41 117-41 103 0 187 84 187 188s-84 187-187 187-188-84-188-187c0-14 2-28 4-41l-200-125c-32 25-72 41-116 41-104 0-188-84-188-188s84-187 188-187c44 0 84 15 116 40l200-125a188 188 0 0 1-4-40c0-104 84-188 188-188s187 84 187 188-84 187-187 187z" horiz-adv-x="875" />

<glyph glyph-name="code" unicode="&#xe854;" d="M545-149l-119 34c-13 4-20 17-16 30l266 918c4 13 17 20 29 16l119-34c13-4 20-17 16-30l-266-918c-4-13-17-20-29-16z m-223 219l85 91c9 9 8 25-1 33l-177 156 177 156c9 9 10 24 1 33l-85 91c-9 9-24 10-33 1l-282-264c-10-9-10-25 0-34l282-264c9-9 24-8 33 1z m639-1l282 264c10 9 10 25 0 34l-282 264c-9 9-24 9-33-1l-85-90c-9-10-8-25 2-34l177-156-177-156c-10-8-11-24-2-33l85-91c9-9 24-10 33-1z" horiz-adv-x="1250" />

<glyph glyph-name="history" unicode="&#xe855;" d="M984 351c1-267-217-485-484-485-115-1-221 40-304 107-22 17-23 50-4 69l22 22c17 17 44 19 63 4 61-48 139-77 223-77 199 0 359 160 359 359 0 199-160 359-359 359-95 0-182-37-246-97l99-99c20-20 6-54-22-54h-284c-17 0-31 14-31 32v284c0 27 33 41 53 22l96-97c87 83 205 134 335 134 267 0 484-216 484-483z m-353-154l19 25c16 20 12 50-8 66l-79 61v204c0 26-21 47-47 47h-32c-25 0-46-21-46-47v-265l127-99c21-16 50-12 66 8z" horiz-adv-x="1000" />

<glyph glyph-name="star" unicode="&#xe856;" d="M506 815l-127-258-285-42c-52-7-72-70-35-107l206-201-48-284c-9-51 45-90 90-66l256 134 255-134c45-24 99 15 90 66l-48 284 206 201c37 37 17 100-35 107l-285 42-127 258c-23 46-89 47-113 0z" horiz-adv-x="1125" />

<glyph glyph-name="file-import" unicode="&#xe857;" d="M31 288c-17 0-31-15-31-32v-62c0-17 14-31 31-31h219v125z m955 357l-191 191c-9 9-21 14-33 14h-12v-250h250v12c0 12-5 24-14 33z m-298-61v266h-391c-26 0-47-21-47-47v-515h250v127c0 28 34 42 54 22l186-189c13-13 13-33 0-46l-187-189c-19-19-53-6-53 22v128h-250v-266c0-26 21-47 47-47h656c26 0 47 21 47 47v641h-266c-25 0-46 21-46 46z" horiz-adv-x="1000" />

<glyph glyph-name="file-download" unicode="&#xe858;" d="M438 584v266h-391c-26 0-47-21-47-47v-906c0-26 21-47 47-47h656c26 0 47 21 47 47v641h-266c-25 0-46 21-46 46z m149-412l-188-187c-13-13-34-13-47 0l-189 187c-20 19-6 53 22 53h128v156c0 18 14 32 31 32h62c18 0 32-14 32-32v-156h127c28 0 42-34 22-53z m149 473l-191 191c-9 9-21 14-33 14h-12v-250h250v12c0 12-5 24-14 33z" horiz-adv-x="750" />

<glyph glyph-name="file-pdf" unicode="&#xe859;" d="M355 350c-9 31-9 91-4 91 17 0 15-72 4-91z m-3-92c-15-40-34-85-55-123 35 14 76 34 122 43-24 19-48 46-67 80z m-184-244c0-2 26 10 68 78-13-12-56-47-68-78z m316 524h266v-641c0-26-21-47-47-47h-656c-26 0-47 21-47 47v906c0 26 21 47 47 47h391v-266c0-25 21-46 46-46z m-15-336c-39 24-65 57-84 105 9 36 23 91 13 125-10 58-83 52-94 14-10-36-1-86 16-151-23-54-56-126-80-167 0 0 0 0 0 0-53-28-144-87-107-133 11-14 32-20 42-20 35 0 70 35 120 121 50 17 105 37 154 45 42-23 92-38 125-38 57 0 61 63 39 85-28 27-107 19-144 14z m267 443l-191 191c-9 9-21 14-33 14h-12v-250h250v12c0 12-5 24-14 33z m-144-499c8 6-5 24-84 18 73-31 84-18 84-18z" horiz-adv-x="750" />

<glyph glyph-name="file-word" unicode="&#xe85a;" d="M438 584v266h-391c-26 0-47-21-47-47v-906c0-26 21-47 47-47h656c26 0 47 21 47 47v641h-266c-25 0-46 21-46 46z m111-234h47c15 0 26-14 23-29l-75-328c-2-11-12-18-22-18h-75c-10 0-20 7-22 18-51 202-41 158-50 216h-1c-2-28-5-34-50-216-3-11-12-18-23-18h-72c-11 0-21 8-23 18l-74 329c-3 14 8 28 23 28h48c11 0 20-8 23-19 30-152 39-214 41-239 3 20 14 64 57 240 3 11 12 18 23 18h57c11 0 20-8 23-18 46-196 56-242 57-253 0 22-5 35 43 252 2 11 11 19 22 19z m201 262v-12h-250v250h12c12 0 24-5 33-14l191-191c9-9 14-21 14-33z" horiz-adv-x="750" />

<glyph glyph-name="file-alt" unicode="&#xe85b;" d="M438 584v266h-391c-26 0-47-21-47-47v-906c0-26 21-47 47-47h656c26 0 47 21 47 47v641h-266c-25 0-46 21-46 46z m125-461c0-12-11-23-24-23h-328c-13 0-23 11-23 23v16c0 13 10 24 23 24h328c13 0 24-11 24-24v-16z m0 125c0-12-11-23-24-23h-328c-13 0-23 11-23 23v16c0 13 10 24 23 24h328c13 0 24-11 24-24v-16z m0 141v-16c0-12-11-23-24-23h-328c-13 0-23 11-23 23v16c0 13 10 24 23 24h328c13 0 24-11 24-24z m187 223v-12h-250v250h12c12 0 24-5 33-14l191-191c9-9 14-21 14-33z" horiz-adv-x="750" />

<glyph glyph-name="file" unicode="&#xe85c;" d="M438 584v266h-391c-26 0-47-21-47-47v-906c0-26 21-47 47-47h656c26 0 47 21 47 47v641h-266c-25 0-46 21-46 46z m312 28v-12h-250v250h12c12 0 24-5 33-14l191-191c9-9 14-21 14-33z" horiz-adv-x="750" />

<glyph glyph-name="file-powerpoint" unicode="&#xe85d;" d="M378 320c18 0 31-5 40-15 19-22 19-64 0-87-10-11-24-16-42-16h-52v118h54z m358 325l-191 191c-9 9-21 14-33 14h-12v-250h250v12c0 12-5 24-14 33z m-298-61v266h-391c-26 0-47-21-47-47v-906c0-26 21-47 47-47h656c26 0 47 21 47 47v641h-266c-25 0-46 21-46 46z m103-322c0-177-173-152-217-152v-112c0-13-10-23-23-23h-61c-12 0-23 10-23 23v391c0 13 11 23 23 23h159c87 0 142-64 142-150z" horiz-adv-x="750" />

<glyph glyph-name="table" unicode="&#xf0ce;" d="M286 82v107q0 8-5 13t-13 5h-179q-7 0-12-5t-6-13v-107q0-8 6-13t12-5h179q8 0 13 5t5 13z m0 214v108q0 7-5 12t-13 5h-179q-7 0-12-5t-6-12v-108q0-7 6-12t12-5h179q8 0 13 5t5 12z m285-214v107q0 8-5 13t-12 5h-179q-8 0-13-5t-5-13v-107q0-8 5-13t13-5h179q7 0 12 5t5 13z m-285 429v107q0 8-5 13t-13 5h-179q-7 0-12-5t-6-13v-107q0-8 6-13t12-5h179q8 0 13 5t5 13z m285-215v108q0 7-5 12t-12 5h-179q-8 0-13-5t-5-12v-108q0-7 5-12t13-5h179q7 0 12 5t5 12z m286-214v107q0 8-5 13t-13 5h-178q-8 0-13-5t-5-13v-107q0-8 5-13t13-5h178q8 0 13 5t5 13z m-286 429v107q0 8-5 13t-12 5h-179q-8 0-13-5t-5-13v-107q0-8 5-13t13-5h179q7 0 12 5t5 13z m286-215v108q0 7-5 12t-13 5h-178q-8 0-13-5t-5-12v-108q0-7 5-12t13-5h178q8 0 13 5t5 12z m0 215v107q0 8-5 13t-13 5h-178q-8 0-13-5t-5-13v-107q0-8 5-13t13-5h178q8 0 13 5t5 13z m72 178v-607q0-37-27-63t-63-26h-750q-36 0-63 26t-26 63v607q0 37 26 63t63 27h750q37 0 63-27t27-63z" horiz-adv-x="928.6" />
</font>
</defs>
</svg>
